【龙网转发】【张艺谋导2023最新票房犯罪】【坚如磐石】【WebDL-2160p.MKV】【国语】 - 龙网BT发布页 - 梦幻天堂·龙网专属BT发布页
资源名称: 【龙网转发】【张艺谋导2023最新票房犯罪】【坚如磐石】【WebDL-2160p.MKV】【国语】 [参与讨论]
发布者: 由 lwgod 发布于2023/12/15 19:30
发布联盟:
资源介绍:
海报
 
Image
 
Image
 
译  名 坚如磐石/黑洞
片  名 Under the Light
年  代 2023
国  家 中国
类  别 犯罪/剧情/悬疑
语  言 汉语普通话
字  幕 中英硬字幕
评  分 6.3/10 from 223,982 users
文件大小 4.15 GB
片  长 127 Min
导  演 张艺谋 Yimou Zhang
主  演 雷佳音 Jiayin Lei
     张国立 Guoli Zhang
     于和伟 Hewei Yu
     周冬雨 Dongyu Zhou
     孙艺洲 Yizhou Sun
     李乃文 Naiwen Li
     许亚军 Yajun Xu
     田雨 Yu Tian
     何政军 Zhengjun He
     徐子力 Zili Xu
     林博洋 Boyang Lin
     陈童 Tong Chen
     陈道明 Daoming Chen
     陈冲 Joan Chen
     王迅 Xun Wang
 
简介
 
  导演张艺谋回归现实题材之作,故事围绕苏见明(雷佳音 饰)与李慧琳(周冬雨 饰)联手调查一起暗流涌动、牵扯巨大利益集团的犯罪案件展开。为了调查案情,苏见明不顾位高权重的父亲郑刚(张国立 饰)的劝阻,赶赴富商黎志田(于和伟 饰)的“鸿门宴”,在观看了一出黎志田愚弄他人、手入火锅的猖狂戏码后,越来越多的线索逐渐浮出水面。在这些线索背后的暗流涌动,让人隐隐感到一盘大棋正在筹谋。
 
  金江市副市长郑刚(张国立 饰)之子苏见明(雷佳音 饰)不顾父亲的劝阻,应邀赴约首富黎志田(于和伟 饰)的“鸿门宴”,不料却被迫观看了一出“人手下火锅”的猖狂戏码。旧案翻起,风雨欲来,各方蛰伏势力蠢蠢欲动,筹谋与算计、审视与怀疑,光怪陆离之中,人性欲望翻腾,谁将撕去最后的面具?
 
Video
Format                         : HEVC
Format/Info                    : High Efficiency Video Coding
Format profile                 : Main 10@L5.1@Main
Codec ID                       : V_MPEGH/ISO/HEVC
Duration                       : 2 h 7 min
Bit rate                       : 4 464 kb/s
Width                          : 3 840 pixels
Height                         : 1 440 pixels
Display aspect ratio           : 2.667
Frame rate mode                : Constant
Frame rate                     : 60.000 FPS
Color space                    : YUV
Chroma subsampling             : 4:2:0
Bit depth                      : 10 bits
Bits/(Pixel*Frame)             : 0.013
Stream size                    : 3.98 GiB (96%)
Color range                    : Limited
Color primaries                : BT.709
Transfer characteristics       : BT.709
Matrix coefficients            : BT.709
 
Audio
Format                         : AAC LC
Format/Info                    : Advanced Audio Codec Low Complexity
Codec ID                       : A_AAC-2
Duration                       : 2 h 7 min
Bit rate                       : 192 kb/s
Channel(s)                     : 2 channels
Channel layout                 : L R
Sampling rate                  : 44.1 kHz
Frame rate                     : 43.066 FPS (1024 SPF)
Compression mode               : Lossy
Stream size                    : 175 MiB (4%)
 
截图
 
Image
下载资源: Download 开始下载
文件总大小: 4.2GB (种子:7,下载:1,完成:625)    
包含文件: URL 梦幻天堂·龙网(www.LWgod.org).坚如磐石.黑洞/本片海报、简介、截图等双击这里进入发布地址查看.url (198Bytes)
URL 梦幻天堂·龙网(www.LWgod.org).坚如磐石.黑洞/梦幻天堂·龙网(www.LWgod.org) 质量第一 品质保证.url (176Bytes)
UNKNOWN 梦幻天堂·龙网(www.LWgod.org).坚如磐石.黑洞/梦幻天堂·龙网(www.LWgod.org) 超多爆爽资源下载目录.rtf (2.1KB)
MKV 梦幻天堂·龙网(www.LWgod.org).坚如磐石.黑洞/梦幻天堂·龙网(www.LWgod.org).坚如磐石.黑洞.mkv (4.2GB)
UNKNOWN 梦幻天堂·龙网(www.LWgod.org).坚如磐石.黑洞/梦幻天堂·龙网最新网址 www.LWgod.org 请重新收藏.rtf (890Bytes)
UNKNOWN 梦幻天堂·龙网(www.LWgod.org).坚如磐石.黑洞/龙网种子即将停止外转,下载龙网资源请至龙网原创区.rtf (807Bytes)
Powered by BTMaster.cn Version:1.3.3