【龙网转发】【美国2022最新科幻惊悚大片】【双重躯体】【WebDL-1080p.MKV】【中字】 - 龙网BT发布页 - 梦幻天堂·龙网专属BT发布页
资源名称: 【龙网转发】【美国2022最新科幻惊悚大片】【双重躯体】【WebDL-1080p.MKV】【中字】 [参与讨论]
发布者: 由 lwgod 发布于2022/05/26 21:09
发布联盟:
资源介绍:
海报
 
Image
 
Image
 
译  名 双重躯体/双重身分(台)
片  名 Dual
年  代 2022
国  家 美国/芬兰
类  别 科幻/惊悚
语  言 英语
字  幕 中简/中繁/英文
评  分 6.3/10 from 771 users
文件大小 6.84 GB
片  长 95 Min
导  演 莱利·斯特恩斯 Riley Stearns
主  演 凯伦·吉兰 Karen Gillan
     亚伦·保尔 Aaron Paul
     比尤拉·寇尔 Beulah Koale
     西奥·詹姆斯 Theo James
     埃莉娜·杰克逊 Elina Jackson
     玛伊娅·保尼奥 Maija Paunio
     蕾雅·莱斯特 Rea Lest
     琼·海德 June Hyde
     克里斯托弗·古梅鲁斯 Kristofer Gummerus
     尼科·谢基宁 Nico Siekkinen
     艾尔莎·赛西奥 Elsa Saisio
 
简介
 
  莎拉(凯伦·吉兰 饰)在收到绝症诊断后,决定用克隆技术复制自己,以减轻她的离世对朋友和家人造成的痛苦。可她却奇迹般地康复了。然而,此时她申请销毁自己的克隆复制品的尝试却失败了,法院授权判罚:本体和克隆体必须进行决斗,两人只能活下来一个。
 
Video
Format                         : AVC
Format/Info                    : Advanced Video Codec
Format profile                 : High@L4
Format settings                : CABAC / 4 Ref Frames
Format settings, CABAC         : Yes
Format settings, Reference fra : 4 frames
Codec ID                       : V_MPEG4/ISO/AVC
Duration                       : 1 h 34 min
Bit rate mode                  : Constant
Bit rate                       : 10 000 kb/s
Width                          : 1 920 pixels
Height                         : 1 080 pixels
Display aspect ratio           : 16:9
Frame rate mode                : Constant
Frame rate                     : 24.000 FPS
Color space                    : YUV
Chroma subsampling             : 4:2:0
Bit depth                      : 8 bits
Scan type                      : Progressive
Bits/(Pixel*Frame)             : 0.201
Stream size                    : 6.41 GiB (94%)
Color range                    : Limited
Color primaries                : BT.709
Transfer characteristics       : BT.709
Matrix coefficients            : BT.709
 
Audio
Format                         : E-AC-3
Format/Info                    : Enhanced AC-3
Commercial name                : Dolby Digital Plus
Codec ID                       : A_EAC3
Duration                       : 1 h 34 min
Bit rate mode                  : Constant
Bit rate                       : 640 kb/s
Channel(s)                     : 6 channels
Channel layout                 : L R C LFE Ls Rs
Sampling rate                  : 48.0 kHz
Frame rate                     : 31.250 FPS (1536 SPF)
Compression mode               : Lossy
Stream size                    : 433 MiB (6%)
Service kind                   : Complete Main
 
截图
 
Image
下载资源: Download 开始下载
文件总大小: 6.8GB (种子:3,下载:8,完成:568)    
包含文件: URL 梦幻天堂·龙网(www.LWgod.org).双重躯体.双重身分/本片海报、简介、截图等双击这里进入发布地址查看.url (198Bytes)
URL 梦幻天堂·龙网(www.LWgod.org).双重躯体.双重身分/梦幻天堂·龙网(www.LWgod.org) 质量第一 品质保证.url (176Bytes)
UNKNOWN 梦幻天堂·龙网(www.LWgod.org).双重躯体.双重身分/梦幻天堂·龙网(www.LWgod.org) 超多爆爽资源下载目录.rtf (2.1KB)
MKV 梦幻天堂·龙网(www.LWgod.org).双重躯体.双重身分/梦幻天堂·龙网(www.LWgod.org).双重躯体.双重身分.mkv (6.8GB)
UNKNOWN 梦幻天堂·龙网(www.LWgod.org).双重躯体.双重身分/梦幻天堂·龙网最新网址 www.LWgod.org 请重新收藏.rtf (890Bytes)
Powered by BTMaster.cn Version:1.3.3