【龙网转发】【美2023最新热门悬疑惊悚大片】【感恩节】【WebDL-1080p.MKV】【中字】 - 龙网BT发布页 - 梦幻天堂·龙网专属BT发布页
资源名称: 【龙网转发】【美2023最新热门悬疑惊悚大片】【感恩节】【WebDL-1080p.MKV】【中字】 [参与讨论]
发布者: 由 lwgod 发布于2023/12/21 19:34
发布联盟:
资源介绍:
海报
 
Image
 
Image
 
译  名 感恩节/恐怖感恩劫(台)/血腥假期(港)
片  名 Thanksgiving
年  代 2023
国  家 美国
类  别 悬疑/惊悚/恐怖
语  言 英语
字  幕 中简/中繁/英文
评  分 6.4/10 from 1,986 users
文件大小 6.33 GB
片  长 106 Min
导  演 伊莱·罗斯 Eli Roth
主  演 帕特里克·德姆西 Patrick Dempsey
     泰·奥尔森 Ty Olsson
     吉娜·格申 Gina Gershon
     加布里埃尔·达文波特 Gabriel Davenport
     凯伦·克里奇 Karen Cliche
     内尔·维拉克 Nell Verlaque
     里克·霍夫曼 Rick Hoffman
     德里克·麦克加特 Derek McGrath
     凯瑟琳·特罗维尔 Katherine Trowell
     杰伦·托马斯·布鲁克斯 Jalen Thomas Brooks
     米卡·阿蒙森 Mika Amonsen
 
简介
 
  一个连环杀人犯前往马萨诸塞州小镇,想把镇上居民打造成感恩节活人雕刻版。影片讲述在黑色星期五骚乱事件以悲剧告终后,一名受感恩节启发的神秘连环杀手开始对马萨诸塞州普利茅斯进行恐吓,在这个臭名昭著的节日的诞生地掀起恐怖风暴。
 
Video
Format                         : AVC
Format/Info                    : Advanced Video Codec
Format profile                 : High@L4
Format settings                : CABAC / 4 Ref Frames
Format settings, CABAC         : Yes
Format settings, Reference fra : 4 frames
Codec ID                       : V_MPEG4/ISO/AVC
Duration                       : 1 h 45 min
Bit rate mode                  : Constant
Bit rate                       : 7 899 kb/s
Nominal bit rate               : 10 000 kb/s
Width                          : 1 920 pixels
Height                         : 800 pixels
Display aspect ratio           : 2.40:1
Frame rate mode                : Constant
Frame rate                     : 23.976 (24000/1001) FPS
Color space                    : YUV
Chroma subsampling             : 4:2:0
Bit depth                      : 8 bits
Scan type                      : Progressive
Bits/(Pixel*Frame)             : 0.215
Stream size                    : 5.85 GiB (92%)
Color range                    : Limited
Color primaries                : BT.709
Transfer characteristics       : BT.709
Matrix coefficients            : BT.709
 
Audio
Format                         : E-AC-3
Format/Info                    : Enhanced AC-3
Commercial name                : Dolby Digital Plus
Codec ID                       : A_EAC3
Duration                       : 1 h 45 min
Bit rate mode                  : Constant
Bit rate                       : 640 kb/s
Channel(s)                     : 6 channels
Channel layout                 : L R C LFE Ls Rs
Sampling rate                  : 48.0 kHz
Frame rate                     : 31.250 FPS (1536 SPF)
Compression mode               : Lossy
Stream size                    : 485 MiB (7%)
Language                       : English
Service kind                   : Complete Main
 
截图
 
Image
下载资源: Download 开始下载
文件总大小: 6.3GB (种子:0,下载:3,完成:181)    
包含文件: URL 梦幻天堂·龙网(www.LWgod.org).感恩节.恐怖感恩劫.血腥假期/本片海报、简介、截图等双击这里进入发布地址查看.url (198Bytes)
URL 梦幻天堂·龙网(www.LWgod.org).感恩节.恐怖感恩劫.血腥假期/梦幻天堂·龙网(www.LWgod.org) 质量第一 品质保证.url (176Bytes)
UNKNOWN 梦幻天堂·龙网(www.LWgod.org).感恩节.恐怖感恩劫.血腥假期/梦幻天堂·龙网(www.LWgod.org) 超多爆爽资源下载目录.rtf (2.1KB)
MKV 梦幻天堂·龙网(www.LWgod.org).感恩节.恐怖感恩劫.血腥假期/梦幻天堂·龙网(www.LWgod.org).感恩节.恐怖感恩劫.血腥假期.mkv (6.3GB)
UNKNOWN 梦幻天堂·龙网(www.LWgod.org).感恩节.恐怖感恩劫.血腥假期/梦幻天堂·龙网最新网址 www.LWgod.org 请重新收藏.rtf (890Bytes)
UNKNOWN 梦幻天堂·龙网(www.LWgod.org).感恩节.恐怖感恩劫.血腥假期/龙网种子即将停止外转,下载龙网资源请至龙网原创区.rtf (807Bytes)
Powered by BTMaster.cn Version:1.3.3