【龙网转发】【法2023超高分获奖年度杰作】【坠落的审判】【WebDL-720p.MKV】【中字】 - 龙网BT发布页 - 梦幻天堂·龙网专属BT发布页
资源名称: 【龙网转发】【法2023超高分获奖年度杰作】【坠落的审判】【WebDL-720p.MKV】【中字】 [参与讨论]
发布者: 由 lwgod 发布于2023/11/26 16:22
发布联盟:
资源介绍:
目前只有720p版,并且带有英文硬字幕,无法去除
本片荣获2023年第76届戛纳电影节金棕榈奖,年度最具突破性杰作!
 
海报
 
Image
 
Image
 
译  名 坠落的审判/坠楼死亡的剖析/一场坠楼的剖析/坠落的剖析
片  名 Anatomy of a Fall
年  代 2023
国  家 法国
类  别 剧情/家庭
语  言 法语/英语/德语
字  幕 中简/中繁
评  分 8.5/10 from 60,808 users
文件大小 2.24 GB
片  长 151 Min
导  演 茹斯汀·特里耶 Justine Triet
主  演 桑德拉·惠勒 Sandra Huller
     斯万·阿劳德 Swann Arlaud
     米洛·马查多·格拉纳 Milo Machado Graner
     安托万·赖纳茨 Antoine Reinartz
     塞缪尔·泰斯 Samuel Theis
     珍妮·贝丝 Jehnny Beth
     莎迪娅·本太耶布 Saadia Bentaieb
     卡米莉·拉瑟福德 Camille Rutherford
     安妮·罗特格 Anne Rotger
     索菲亚·菲力瑞斯 Sophie Fillieres
     梅西 Messi
 
简介
 
  桑德拉、萨姆尔以及他们视力有障碍的儿子丹尼尔在偏远山区生活了一年。一天,萨姆尔在房子外面被发现死亡,警方立即展开了涉嫌命案的调查。在不确定的情况下,桑德拉被控:这是自杀还是谋杀?一年后,丹尼尔参加了母亲的审判,这也是对他父母关系的真正剖析。
 
Video
Format                         : AVC
Format/Info                    : Advanced Video Codec
Format profile                 : High @ L3.2
Format settings                : CABAC / 5 Ref Frames
Format settings, CABAC         : Yes
Format settings, Reference fra : 5 frames
Codec ID                       : V_MPEG4/ISO/AVC
Duration                       : 2 h 31 min
Bit rate                       : 1 923 kb/s
Width                          : 1 280 pixels
Height                         : 690 pixels
Display aspect ratio           : 1.85:1
Frame rate mode                : Constant
Frame rate                     : 24.000 FPS
Color space                    : YUV
Chroma subsampling             : 4:2:0
Bit depth                      : 8 bits
Scan type                      : Progressive
Bits/(Pixel*Frame)             : 0.091
Stream size                    : 2.03 GiB (91%)
Color range                    : Limited
Color primaries                : BT.709
Transfer characteristics       : BT.709
Matrix coefficients            : BT.709
 
Audio
Format                         : AAC LC
Format/Info                    : Advanced Audio Codec Low Complexity
Codec ID                       : A_AAC-2
Duration                       : 2 h 31 min
Bit rate                       : 192 kb/s
Channel(s)                     : 2 channels
Channel layout                 : L R
Sampling rate                  : 48.0 kHz
Frame rate                     : 46.875 FPS (1024 SPF)
Compression mode               : Lossy
Stream size                    : 205 MiB (9%)
 
截图
 
Image
下载资源: Download 开始下载
文件总大小: 2.2GB (种子:0,下载:3,完成:171)    
包含文件: URL 梦幻天堂·龙网(www.LWgod.org).坠落的审判.坠楼死亡的剖析/本片海报、简介、截图等双击这里进入发布地址查看.url (198Bytes)
URL 梦幻天堂·龙网(www.LWgod.org).坠落的审判.坠楼死亡的剖析/梦幻天堂·龙网(www.LWgod.org) 质量第一 品质保证.url (176Bytes)
UNKNOWN 梦幻天堂·龙网(www.LWgod.org).坠落的审判.坠楼死亡的剖析/梦幻天堂·龙网(www.LWgod.org) 超多爆爽资源下载目录.rtf (2.1KB)
MKV 梦幻天堂·龙网(www.LWgod.org).坠落的审判.坠楼死亡的剖析/梦幻天堂·龙网(www.LWgod.org).坠落的审判.坠楼死亡的剖析.mkv (2.2GB)
UNKNOWN 梦幻天堂·龙网(www.LWgod.org).坠落的审判.坠楼死亡的剖析/梦幻天堂·龙网最新网址 www.LWgod.org 请重新收藏.rtf (890Bytes)
UNKNOWN 梦幻天堂·龙网(www.LWgod.org).坠落的审判.坠楼死亡的剖析/龙网种子即将停止外转,下载龙网资源请至龙网原创区.rtf (807Bytes)
Powered by BTMaster.cn Version:1.3.3