【龙网转发】【中国2021万众期待票房剧情犯罪】【误杀2】【WebDL-2160p.MKV】【国语】 - 龙网BT发布页 - 梦幻天堂·龙网专属BT发布页
资源名称: 【龙网转发】【中国2021万众期待票房剧情犯罪】【误杀2】【WebDL-2160p.MKV】【国语】 [参与讨论]
发布者: 由 lwgod 发布于2022/05/12 17:41
发布联盟:
资源介绍:
海报
 
Image
 
Image
 
译  名 误杀2
片  名 Fireflies in the Sun
年  代 2021
国  家 中国
类  别 剧情/犯罪
语  言 汉语普通话
字  幕 中英硬字幕
评  分 5.7/10 from 313,409 users
文件大小 9.47 GB
片  长 118 Min
导  演 戴墨 Mo Dai
主  演 肖央 Yang Xiao
     任达华 Simon Yam
     文咏珊 Janice Man
     陈雨锶 Yusi Chen
     宋洋 Yang Song
     李治廷 Aarif Lee
     张世 Shih Chang
     尹子维 Terence Yin
     姜皓文 Philip Keung
     陈昊 Hao Chen
     周楚濋 Chu-chu Zhou
     王昊泽 Haoze Wang
 
简介
 
  林日朗(肖央 饰)与妻子阿玲(文咏珊 饰)、儿子小虫(王昊泽 饰)一直过着清贫但幸福的生活,直到儿子小虫突发意外急需救治,几经周折,走投无路的林日朗为了救儿子决定放手一搏。他制定了一个惊天计划.....
 
  本片改编自电影《迫在眉梢》。
 
Video
Format                         : HEVC
Format/Info                    : High Efficiency Video Coding
Format profile                 : Main @ L5 @ Main
Codec ID                       : V_MPEGH/ISO/HEVC
Duration                       : 1 h 58 min
Bit rate                       : 11.0 Mb/s
Width                          : 3 840 pixels
Height                         : 1 608 pixels
Display aspect ratio           : 2.40:1
Frame rate mode                : Constant
Frame rate                     : 24.000 FPS
Color space                    : YUV
Chroma subsampling             : 4:2:0
Bit depth                      : 8 bits
Bits/(Pixel*Frame)             : 0.074
Stream size                    : 9.10 GiB (96%)
 
Audio
Format                         : E-AC-3 JOC
Format/Info                    : Enhanced AC-3 with Joint Object Coding
Commercial name                : Dolby Digital Plus with Dolby Atmos
Codec ID                       : A_EAC3
Duration                       : 1 h 58 min
Bit rate mode                  : Constant
Bit rate                       : 448 kb/s
Channel(s)                     : 6 channels
Channel layout                 : L R C LFE Ls Rs
Sampling rate                  : 48.0 kHz
Frame rate                     : 31.250 FPS (1536 SPF)
Compression mode               : Lossy
Stream size                    : 380 MiB (4%)
Service kind                   : Complete Main
Complexity index               : 16
Number of dynamic objects      : 15
Bed channel count              : 1 channel
Bed channel configuration      : LFE
 
截图
 
Image
下载资源: Download 开始下载
文件总大小: 9.5GB (种子:2,下载:1,完成:335)    
包含文件: URL 梦幻天堂·龙网(www.LWgod.org).误杀2/本片海报、简介、截图等双击这里进入发布地址查看.url (198Bytes)
URL 梦幻天堂·龙网(www.LWgod.org).误杀2/梦幻天堂·龙网(www.LWgod.org) 质量第一 品质保证.url (176Bytes)
UNKNOWN 梦幻天堂·龙网(www.LWgod.org).误杀2/梦幻天堂·龙网(www.LWgod.org) 超多爆爽资源下载目录.rtf (2.1KB)
MKV 梦幻天堂·龙网(www.LWgod.org).误杀2/梦幻天堂·龙网(www.LWgod.org).误杀2.mkv (9.5GB)
UNKNOWN 梦幻天堂·龙网(www.LWgod.org).误杀2/梦幻天堂·龙网最新网址 www.LWgod.org 请重新收藏.rtf (890Bytes)
Powered by BTMaster.cn Version:1.3.3