【龙网转发】【美2022最热奇幻冒险必看】【瞬息全宇宙】【WebDL-1080p.MKV】【中字】 - 龙网BT发布页 - 梦幻天堂·龙网专属BT发布页
资源名称: 【龙网转发】【美2022最热奇幻冒险必看】【瞬息全宇宙】【WebDL-1080p.MKV】【中字】 [参与讨论]
发布者: 由 lwgod 发布于2022/05/24 20:33
发布联盟:
资源介绍:
海报
 
Image
 
Image
 
译  名 瞬息全宇宙/妈的多重宇宙(台)/奇异女侠玩救宇宙(港)/天马行空/瞬息各处所有/全部世界同时一切
片  名 Everything Everywhere All at Once
年  代 2022
国  家 美国
类  别 动作/冒险/奇幻/科幻/喜剧
语  言 英语/汉语普通话/粤语
字  幕 中简/中繁/英文
评  分 8.5/10 from 69,679 users
文件大小 6.41 GB
片  长 139 Min
导  演 关家永 Dan Kwan
     丹尼尔·施纳特 Daniel Scheinert
主  演 杨紫琼 Michelle Yeoh
     许玮伦 Stephanie Hsu
     关继威 Jonathan Ke Quan
     吴汉章 James Hong
     杰米·李·柯蒂斯 Jamie Lee Curtis
     塔丽·梅德尔 Tallie Medel
     珍妮·斯蕾特 Jenny Slate
     岑勇康 Harry Shum Jr.
     比夫·威夫 Biff Wiff
     布莱恩·勒 Brian Le
     安迪·黎 Andy Le
     李景 Li Jing
 
简介
 
  55岁的美国华裔移民伊芙琳(杨紫琼 饰)家庭事业两崩溃。在老父亲生日大寿这天,除了要阻止女儿(许玮伦 饰)暴走出柜、替无用丈夫(关继威 饰)擦屁股,还得去税务局向古板大婶(杰米·李·柯蒂斯 饰)解释不太妙的税务问题。才踏进大楼电梯,软烂丈夫竟摇身一变演起黑客帝国,声称自己是另一个宇宙的版本,而秀莲也是千万宇宙里的其中一个。还来不及理解,邪恶势力已在多元宇宙中蔓延,世界即将毁灭,只有在这个宇宙里,“一无是处”的伊芙琳才能拯救世界……
 
Video
Format                         : AVC
Format/Info                    : Advanced Video Codec
Format profile                 : High@L4
Format settings                : CABAC / 2 Ref Frames
Format settings, CABAC         : Yes
Format settings, Reference fra : 2 frames
Codec ID                       : V_MPEG4/ISO/AVC
Duration                       : 2 h 19 min
Bit rate                       : 6 197 kb/s
Width                          : 1 920 pixels
Height                         : 1 080 pixels
Display aspect ratio           : 16:9
Frame rate mode                : Constant
Frame rate                     : 23.976 (24000/1001) FPS
Color space                    : YUV
Chroma subsampling             : 4:2:0
Bit depth                      : 8 bits
Scan type                      : Progressive
Bits/(Pixel*Frame)             : 0.125
Stream size                    : 6.03 GiB (94%)
Color range                    : Limited
Color primaries                : BT.709
Transfer characteristics       : BT.709
Matrix coefficients            : BT.709
 
Audio
Format                         : E-AC-3
Format/Info                    : Enhanced AC-3
Commercial name                : Dolby Digital Plus
Codec ID                       : A_EAC3
Duration                       : 2 h 19 min
Bit rate mode                  : Constant
Bit rate                       : 384 kb/s
Channel(s)                     : 6 channels
Channel layout                 : L R C LFE Ls Rs
Sampling rate                  : 48.0 kHz
Frame rate                     : 31.250 FPS (1536 SPF)
Compression mode               : Lossy
Stream size                    : 383 MiB (6%)
Service kind                   : Complete Main
 
截图
 
Image
下载资源: Download 开始下载
文件总大小: 6.4GB (种子:17,下载:8,完成:1017)    
包含文件: URL 梦幻天堂·龙网(www.LWgod.org).瞬息全宇宙.妈的多重宇宙/本片海报、简介、截图等双击这里进入发布地址查看.url (198Bytes)
URL 梦幻天堂·龙网(www.LWgod.org).瞬息全宇宙.妈的多重宇宙/梦幻天堂·龙网(www.LWgod.org) 质量第一 品质保证.url (176Bytes)
UNKNOWN 梦幻天堂·龙网(www.LWgod.org).瞬息全宇宙.妈的多重宇宙/梦幻天堂·龙网(www.LWgod.org) 超多爆爽资源下载目录.rtf (2.1KB)
MKV 梦幻天堂·龙网(www.LWgod.org).瞬息全宇宙.妈的多重宇宙/梦幻天堂·龙网(www.LWgod.org).瞬息全宇宙.妈的多重宇宙.mkv (6.4GB)
UNKNOWN 梦幻天堂·龙网(www.LWgod.org).瞬息全宇宙.妈的多重宇宙/梦幻天堂·龙网最新网址 www.LWgod.org 请重新收藏.rtf (890Bytes)
Powered by BTMaster.cn Version:1.3.3