【龙网转发】【莱昂纳多2023最新悬疑犯罪】【花月杀手】【WebDL-1080p.MKV】【中字】 - 龙网BT发布页 - 梦幻天堂·龙网专属BT发布页
资源名称: 【龙网转发】【莱昂纳多2023最新悬疑犯罪】【花月杀手】【WebDL-1080p.MKV】【中字】 [参与讨论]
发布者: 由 lwgod 发布于2023/12/05 15:42
发布联盟:
资源介绍:
海报
 
Image
 
Image
 
译  名 花月杀手/花开之月的杀手
片  名 Killers of the Flower Moon
年  代 2023
国  家 美国
类  别 悬疑/犯罪/惊悚/剧情/历史/西部
语  言 英语
字  幕 中简/中繁/英文
评  分 7.3/10 from 8,838 users
文件大小 13.4 GB
片  长 206 Min
导  演 马丁·斯科塞斯 Martin Scorsese
主  演 莱昂纳多·迪卡普里奥 Leonardo DiCaprio
     罗伯特·德尼罗 Robert De Niro
     杰西·普莱蒙 Jesse Plemons
     莉莉·格莱斯顿 Lily Gladstone
     布兰登·费舍 Brendan Fraser
     坦图·卡丁诺 Tantoo Cardinal
     约翰·利思戈 John Lithgow
     卡拉·杰德·迈尔斯 Cara Jade Myers
     亚内·科林斯 Janae Collins
     吉莉安·迪昂 Jillian Dion
     威廉·贝勒 William Belleau
 
简介
 
  影片改编自大卫·格兰所著畅销书《Killers of the Flower Moon:The Osage Murders and the Birth of the FBI》,聚焦1920年代的美国俄克拉何马州,“欧塞奇族印第安人谋杀案”(Osage Indian Mur ders)。当年欧塞奇族人因原居地发现油矿而获得持续巨额收入,有人为阻止上述安排而策划连环谋杀,4年间60人被杀,震惊全国。为此当年美国政府成立“调查局”(即FBI联邦调查局前身)跨部门调查,揭发维护欧塞奇族人权益的“欧塞奇监护人计划”原来极度腐败;最后即使在大量证据下,亦只有少数的谋杀案获得起诉。
 
Video
Format                         : AVC
Format/Info                    : Advanced Video Codec
Format profile                 : High@L4
Format settings                : CABAC / 4 Ref Frames
Format settings, CABAC         : Yes
Format settings, Reference fra : 4 frames
Codec ID                       : V_MPEG4/ISO/AVC
Duration                       : 3 h 28 min
Bit rate mode                  : Constant
Bit rate                       : 8 504 kb/s
Nominal bit rate               : 10 000 kb/s
Width                          : 1 920 pixels
Height                         : 800 pixels
Display aspect ratio           : 2.40:1
Frame rate mode                : Constant
Frame rate                     : 23.976 (24000/1001) FPS
Color space                    : YUV
Chroma subsampling             : 4:2:0
Bit depth                      : 8 bits
Scan type                      : Progressive
Bits/(Pixel*Frame)             : 0.231
Stream size                    : 12.4 GiB (92%)
Color range                    : Limited
Color primaries                : BT.709
Transfer characteristics       : BT.709
Matrix coefficients            : BT.709
 
Audio
Format                         : E-AC-3 JOC
Format/Info                    : Enhanced AC-3 with Joint Object Coding
Commercial name                : Dolby Digital Plus with Dolby Atmos
Codec ID                       : A_EAC3
Duration                       : 3 h 26 min
Bit rate mode                  : Constant
Bit rate                       : 768 kb/s
Channel(s)                     : 6 channels
Channel layout                 : L R C LFE Ls Rs
Sampling rate                  : 48.0 kHz
Frame rate                     : 31.250 FPS (1536 SPF)
Compression mode               : Lossy
Delay relative to video        : 20 ms
Stream size                    : 1.11 GiB (8%)
Language                       : English
Service kind                   : Complete Main
 
截图
 
Image
下载资源: Download 开始下载
文件总大小: 13.5GB (种子:0,下载:10,完成:235)    
包含文件: URL 梦幻天堂·龙网(www.LWgod.org).花月杀手.花开之月的杀手/本片海报、简介、截图等双击这里进入发布地址查看.url (198Bytes)
URL 梦幻天堂·龙网(www.LWgod.org).花月杀手.花开之月的杀手/梦幻天堂·龙网(www.LWgod.org) 质量第一 品质保证.url (176Bytes)
UNKNOWN 梦幻天堂·龙网(www.LWgod.org).花月杀手.花开之月的杀手/梦幻天堂·龙网(www.LWgod.org) 超多爆爽资源下载目录.rtf (2.1KB)
MKV 梦幻天堂·龙网(www.LWgod.org).花月杀手.花开之月的杀手/梦幻天堂·龙网(www.LWgod.org).花月杀手.花开之月的杀手.mkv (13.5GB)
UNKNOWN 梦幻天堂·龙网(www.LWgod.org).花月杀手.花开之月的杀手/梦幻天堂·龙网最新网址 www.LWgod.org 请重新收藏.rtf (890Bytes)
UNKNOWN 梦幻天堂·龙网(www.LWgod.org).花月杀手.花开之月的杀手/龙网种子即将停止外转,下载龙网资源请至龙网原创区.rtf (807Bytes)
Powered by BTMaster.cn Version:1.3.3