【龙网转发】【2022性感美女大尺度】【365天:今时之欲】【WebDL-1080p.MKV】【中字】 - 龙网BT发布页 - 梦幻天堂·龙网专属BT发布页
资源名称: 【龙网转发】【2022性感美女大尺度】【365天:今时之欲】【WebDL-1080p.MKV】【中字】 [参与讨论]
发布者: 由 lwgod 发布于2022/05/04 16:59
发布联盟:
资源介绍:
前作《黑帮大佬和我的365日》的下载地址请点击这里
 
海报
 
Image
 
译  名 365天:今时之欲/黑帮大佬和我的365日2
片  名 365 Days: This Day
年  代 2022
国  家 波兰
类  别 剧情/爱情/情色
语  言 波兰语/意大利语/英语
字  幕 中简/中繁/英语
评  分 4.4/10 from 7,143 users
文件大小 2.04 GB
片  长 111 Min
导  演 芭芭拉·比尔拉瓦斯 Barbara Bialowas
主  演 迈克尔·莫罗内 Michele Morrone
     安娜·玛丽亚·西克拉克 Anna Maria Sieklucka
     西蒙·苏西纳 Simone Susinna
     玛格达莱娜·朗帕斯卡 Magdalena Lamparska
     欧塔萨拉利泽 Otar Saralidze
     卡米尔·雷米泽斯基 Kamil Lemieszewski
     罗伯特·瓦比奇 Robert Wabich
     布兰卡·利平斯卡 Blanka Lipinska
     托马斯·曼丁斯 Tomasz Mandes
     娜塔莎·厄本斯卡 Natasza Urbanska
     卡罗琳娜·皮萨雷克 Karolina Pisarek
 
简介
 
  劳拉和马西莫归来,而且比以往任何时候都要热辣。这对情侣久别重逢,但两人的新开始却因马西莫的家庭关系和一名神秘男子而变得十分复杂。为进入劳拉的生活以获取她的芳心和信任,这个神秘男子将不惜一切代价。
 
Video
Format                         : AVC
Format/Info                    : Advanced Video Codec
Format profile                 : High @ L4
Format settings                : CABAC / 4 Ref Frames
Format settings, CABAC         : Yes
Format settings, Reference fra : 4 frames
Codec ID                       : V_MPEG4/ISO/AVC
Duration                       : 1 h 51 min
Bit rate mode                  : Variable
Bit rate                       : 1 976 kb/s
Maximum bit rate               : 20.0 Mb/s
Width                          : 1 920 pixels
Height                         : 1 080 pixels
Display aspect ratio           : 16:9
Frame rate mode                : Constant
Frame rate                     : 25.000 FPS
Color space                    : YUV
Chroma subsampling             : 4:2:0
Bit depth                      : 8 bits
Scan type                      : Progressive
Bits/(Pixel*Frame)             : 0.038
Stream size                    : 1.54 GiB (75%)
Writing library                : x264 core 148 r2727 7d026e8
Encoding settings              : cabac=1 / ref=4 / deblock=1:0:0 / analyse=0x3:0x111 / me=umh / subme=10 / psy=1 / psy_rd=1.00:0.00 / mixed_ref=1 / me_range=120 / chroma_me=1 / trellis=2 / 8x8dct=1 / cqm=0 / deadzone=21,11 / fast_pskip=1 / chroma_qp_offset=-2 / threads=8 / lookahead_threads=2 / sliced_threads=0 / nr=0 / decimate=1 / interlaced=0 / bluray_compat=0 / stitchable=1 / constrained_intra=0 / bframes=16 / b_pyramid=2 / b_adapt=2 / b_bias=0 / direct=3 / weightb=1 / open_gop=0 / weightp=2 / keyint=250 / keyint_min=126 / scenecut=0 / intra_refresh=0 / rc_lookahead=250 / rc=crf / mbtree=1 / crf=16.0 / qcomp=0.50 / qpmin=6 / qpmax=51 / qpstep=4 / vbv_maxrate=20000 / vbv_bufsize=25000 / crf_max=0.0 / nal_hrd=vbr / filler=0 / ip_ratio=1.40 / aq=1:0.80
 
Audio
Format                         : E-AC-3
Format/Info                    : Enhanced AC-3
Commercial name                : Dolby Digital Plus
Codec ID                       : A_EAC3
Duration                       : 1 h 51 min
Bit rate mode                  : Constant
Bit rate                       : 640 kb/s
Channel(s)                     : 6 channels
Channel layout                 : L R C LFE Ls Rs
Sampling rate                  : 48.0 kHz
Frame rate                     : 31.250 FPS (1536 SPF)
Compression mode               : Lossy
Stream size                    : 509 MiB (24%)
Service kind                   : Complete Main
 
截图
 
Image
 
Image
 
Image
下载资源: Download 开始下载
文件总大小: 2.0GB (种子:8,下载:4,完成:1414)    
包含文件: URL 梦幻天堂·龙网(www.LWgod.org).365天:今时之欲.黑帮大佬和我的365日2/本片海报、简介、截图等双击这里进入发布地址查看.url (198Bytes)
URL 梦幻天堂·龙网(www.LWgod.org).365天:今时之欲.黑帮大佬和我的365日2/梦幻天堂·龙网(www.LWgod.org) 质量第一 品质保证.url (176Bytes)
UNKNOWN 梦幻天堂·龙网(www.LWgod.org).365天:今时之欲.黑帮大佬和我的365日2/梦幻天堂·龙网(www.LWgod.org) 超多爆爽资源下载目录.rtf (2.1KB)
MKV 梦幻天堂·龙网(www.LWgod.org).365天:今时之欲.黑帮大佬和我的365日2/梦幻天堂·龙网(www.LWgod.org).365天:今时之欲.黑帮大佬和我的365日2.mkv (2.0GB)
UNKNOWN 梦幻天堂·龙网(www.LWgod.org).365天:今时之欲.黑帮大佬和我的365日2/梦幻天堂·龙网最新网址 www.LWgod.org 请重新收藏.rtf (890Bytes)
Powered by BTMaster.cn Version:1.3.3