【龙网转发】【中2021超票房高分喜剧悬疑】【扬名立万】【WebDL-1080p.MKV】【国语】 - 龙网BT发布页 - 梦幻天堂·龙网专属BT发布页
资源名称: 【龙网转发】【中2021超票房高分喜剧悬疑】【扬名立万】【WebDL-1080p.MKV】【国语】 [参与讨论]
发布者: 由 lwgod 发布于2022/05/25 20:36
发布联盟:
资源介绍:
海报
 
Image
 
Image
 
译  名 扬名立万/一部电影的诞生
片  名 Be Somebody
年  代 2021
国  家 中国
类  别 喜剧/悬疑/剧情
语  言 汉语普通话
字  幕 中文硬字幕
评  分 7.4/10 from 601,617 users
文件大小 5.24 GB
片  长 123 Min
导  演 刘循子墨 Xunzimo Liu
主  演 尹正 Zheng Yin
     邓家佳 Jiajia Deng
     喻恩泰 Entai Yu
     杨皓宇 Haoyu Yang
     陈明昊 Minghao Chen
     秦霄贤 Xiaoxian Qin
     张本煜 Benyu Zhang
     柯达 Da Ke
     邓恩熙 Enxi Deng
     余皑磊 Ailei Yu
     白客 White. K
 
简介
 
  月黑风高之夜,一群电影人被秘密召集到一起,欲将轰动一时的血案翻拍成电影,借此扬名立万。殊不知他们正身处案发现场,并步步陷入一个巨大迷局之中,而凶手就在他们中间……
 
  伴随着利欲熏天的创作风暴,案件背后的故事似乎也更加扑朔迷离,戏中戏、案中案、局中局、人外人,环环相扣,一场野心与良心的较量愈演愈烈。究竟是命悬一线,还是另有惊天逆转?爱与温暖的血色花又能否从快将干涸的血河中终极绽放?一切都有待揭开。
 
Video
Format                         : AVC
Format/Info                    : Advanced Video Codec
Format profile                 : High@L4
Format settings                : CABAC / 4 Ref Frames
Format settings, CABAC         : Yes
Format settings, Reference fra : 4 frames
Codec ID                       : V_MPEG4/ISO/AVC
Duration                       : 2 h 3 min
Bit rate                       : 5 774 kb/s
Width                          : 1 920 pixels
Height                         : 808 pixels
Display aspect ratio           : 2.40:1
Frame rate mode                : Constant
Frame rate                     : 24.000 FPS
Color space                    : YUV
Chroma subsampling             : 4:2:0
Bit depth                      : 8 bits
Scan type                      : Progressive
Bits/(Pixel*Frame)             : 0.155
Stream size                    : 4.97 GiB (95%)
Writing library                : BiliBili H264 Encoder v1.0
Color range                    : Limited
Color primaries                : BT.709
Transfer characteristics       : BT.709
Matrix coefficients            : BT.709
 
Audio
Format                         : AAC LC
Format/Info                    : Advanced Audio Codec Low Complexity
Codec ID                       : A_AAC-2
Duration                       : 2 h 3 min
Bit rate                       : 320 kb/s
Channel(s)                     : 2 channels
Channel layout                 : L R
Sampling rate                  : 48.0 kHz
Frame rate                     : 46.875 FPS (1024 SPF)
Compression mode               : Lossy
Stream size                    : 282 MiB (5%)
 
截图
 
Image
下载资源: Download 开始下载
文件总大小: 5.2GB (种子:7,下载:5,完成:528)    
包含文件: URL 梦幻天堂·龙网(www.LWgod.org).扬名立万.一部电影的诞生/本片海报、简介、截图等双击这里进入发布地址查看.url (198Bytes)
URL 梦幻天堂·龙网(www.LWgod.org).扬名立万.一部电影的诞生/梦幻天堂·龙网(www.LWgod.org) 质量第一 品质保证.url (176Bytes)
UNKNOWN 梦幻天堂·龙网(www.LWgod.org).扬名立万.一部电影的诞生/梦幻天堂·龙网(www.LWgod.org) 超多爆爽资源下载目录.rtf (2.1KB)
MKV 梦幻天堂·龙网(www.LWgod.org).扬名立万.一部电影的诞生/梦幻天堂·龙网(www.LWgod.org).扬名立万.一部电影的诞生.mkv (5.2GB)
UNKNOWN 梦幻天堂·龙网(www.LWgod.org).扬名立万.一部电影的诞生/梦幻天堂·龙网最新网址 www.LWgod.org 请重新收藏.rtf (890Bytes)
Powered by BTMaster.cn Version:1.3.3