【龙网转发】【大鹏林家栋张颂文2023】【第八个嫌疑人】【WebDL-2160p.MKV】【国语】 - 龙网BT发布页 - 梦幻天堂·龙网专属BT发布页
资源名称: 【龙网转发】【大鹏林家栋张颂文2023】【第八个嫌疑人】【WebDL-2160p.MKV】【国语】 [参与讨论]
发布者: 由 lwgod 发布于2023/11/18 19:14
发布联盟:
资源介绍:
海报
 
Image
 
Image
 
译  名 第八个嫌疑人/第8个嫌疑人
片  名 Dust To Dust
年  代 2023
国  家 中国/中国香港
类  别 剧情/犯罪
语  言 汉语普通话/粤语
字  幕 中英硬字幕
评  分 6.1/10 from 126,854 users
文件大小 4.10 GB
片  长 111 Min
导  演 李子俊 Jonathan Li
主  演 大鹏 Chengpeng Dong
     林家栋 Ka Tung Lam
     张颂文 Songwen Zhang
     齐溪 Xi Qi
     孙阳 Sunny Sun
     衣云鹤 Yunhe Yi
     邵胜杰 Shengjie Shao
     王梓尘 Zichen Wang
     徐锦明 Jinming Xu
     王建兵 Jianbing Wang
     刘占奎 Zhankui Liu
 
简介
 
  一九九五年,广东发生一起大型武装劫钞案,一辆银行运钞车被五名持枪匪徒抢劫,损失高达一千五百万,三名押钞员更在事件中丧生。事件震惊全国,公安局马上成立专案组,以王守月(林家栋 饰)和何蓝(张颂文 饰)为首的刑警迅速搜证,成功掌握五名抢匪去向并逐一拘捕。叫人意外的是,抢匪供出案件背后的真正策划者,竟是一家建筑公司的老板陈信文(大鹏 饰)及其堂弟陈欣年(孙阳 饰)。
 
  陈信文和陈欣年功败垂成,踏上逃亡之路,从此人间蒸发。时间一晃二十一年,当年的案件早已淡出大众的视野,王守月也从公安局退休。然而,一条寻常不过的视频上出现的一个模糊身影,却让他重燃破案的希望。王守月只身前往边境城市,寻找视频中的“陌生人”。最后的正邪对决,在二十一年后正式展开。
 
Video
Format                         : HEVC
Format/Info                    : High Efficiency Video Coding
Format profile                 : Main@L5@Main
Codec ID                       : V_MPEGH/ISO/HEVC
Duration                       : 1 h 51 min
Bit rate                       : 5 006 kb/s
Width                          : 3 840 pixels
Height                         : 1 608 pixels
Display aspect ratio           : 2.40:1
Frame rate mode                : Constant
Frame rate                     : 24.000 FPS
Color space                    : YUV
Chroma subsampling             : 4:2:0
Bit depth                      : 8 bits
Bits/(Pixel*Frame)             : 0.034
Stream size                    : 3.91 GiB (95%)
 
Audio
Format                         : E-AC-3
Format/Info                    : Enhanced AC-3
Commercial name                : Dolby Digital Plus
Codec ID                       : A_EAC3
Duration                       : 1 h 51 min
Bit rate mode                  : Constant
Bit rate                       : 256 kb/s
Channel(s)                     : 6 channels
Channel layout                 : L R C LFE Ls Rs
Sampling rate                  : 48.0 kHz
Frame rate                     : 31.250 FPS (1536 SPF)
Compression mode               : Lossy
Stream size                    : 205 MiB (5%)
Language                       : Chinese
Service kind                   : Complete Main
 
截图
 
Image
下载资源: Download 开始下载
文件总大小: 4.1GB (种子:1,下载:0,完成:370)    
包含文件: URL 梦幻天堂·龙网(www.LWgod.org).第八个嫌疑人.第8个嫌疑人/本片海报、简介、截图等双击这里进入发布地址查看.url (198Bytes)
URL 梦幻天堂·龙网(www.LWgod.org).第八个嫌疑人.第8个嫌疑人/梦幻天堂·龙网(www.LWgod.org) 质量第一 品质保证.url (176Bytes)
UNKNOWN 梦幻天堂·龙网(www.LWgod.org).第八个嫌疑人.第8个嫌疑人/梦幻天堂·龙网(www.LWgod.org) 超多爆爽资源下载目录.rtf (2.1KB)
MKV 梦幻天堂·龙网(www.LWgod.org).第八个嫌疑人.第8个嫌疑人/梦幻天堂·龙网(www.LWgod.org).第八个嫌疑人.第8个嫌疑人.mkv (4.1GB)
UNKNOWN 梦幻天堂·龙网(www.LWgod.org).第八个嫌疑人.第8个嫌疑人/梦幻天堂·龙网最新网址 www.LWgod.org 请重新收藏.rtf (890Bytes)
Powered by BTMaster.cn Version:1.3.3