【龙网转发】【贾玲2024万众期待票房必看】【热辣滚烫】【WebDL-2160p.MKV】【国语】 - 龙网BT发布页 - 梦幻天堂·龙网专属BT发布页
资源名称: 【龙网转发】【贾玲2024万众期待票房必看】【热辣滚烫】【WebDL-2160p.MKV】【国语】 [参与讨论]
发布者: 由 lwgod 发布于2024/04/22 15:34
发布联盟:
资源介绍:
海报
 
Image
 
Image
 
译  名 热辣滚烫/中国版百元之恋
片  名 Yolo
年  代 2024
国  家 中国
类  别 剧情/喜剧
语  言 汉语普通话
字  幕 中文硬字幕
评  分 7.8/10 from 687,917 users
文件大小 4.56 GB
片  长 129 Min
导  演 贾玲 Ling Jia
主  演 贾玲 Ling Jia
     雷佳音 Jiayin Lei
     张小斐 Xiaofei Zhang
     杨紫 Andy Yang
     沙溢 Yi Sha
     乔杉 Shan Qiao
     李雪琴 Xueqin Li
     马丽 Li Ma
     魏翔 Xiang Wei
     赵海燕 Haiyan Zhao
     张琪 Qi Zhang
 
简介
 
  大学毕业后仅仅工作短暂的一段时间,杜乐莹(贾玲 饰)便退回家中,宅家长达十年之久。她无所事事,拒绝和外界做过多接触,甚至和家人的关系也变得紧张起来。在和离婚回到娘家的妹妹乐丹(张小斐 饰)一次激烈的冲突后,乐莹选择离家出走,并且在烧烤店找了服务员的工作勉强维生。爱情、亲情、人生,似乎一时间均跌入了谷底,而阴差阳错间乐莹又结识了落魄的拳击教练昊坤(雷佳音 饰)。她支持着他的梦想,彼此又不得不去面对残酷的现实。人生至暗时刻,随波逐流的女孩是否决心逆流而上?
 
  本片改编自日本电影《百元之恋》。
 
Video
Format                         : HEVC
Format/Info                    : High Efficiency Video Coding
Format profile                 : Main 10 @ L5.1 @ Main
Codec ID                       : V_MPEGH/ISO/HEVC
Duration                       : 2 h 9 min
Bit rate                       : 4 273 kb/s
Width                          : 3 840 pixels
Height                         : 1 616 pixels
Display aspect ratio           : 2.40:1
Frame rate mode                : Constant
Frame rate                     : 60.000 FPS
Color space                    : YUV
Chroma subsampling             : 4:2:0
Bit depth                      : 10 bits
Bits/(Pixel*Frame)             : 0.011
Stream size                    : 3.87 GiB (85%)
Color range                    : Limited
Color primaries                : BT.709
Transfer characteristics       : BT.709
Matrix coefficients            : BT.709
 
Audio
Format                         : E-AC-3 JOC
Format/Info                    : Enhanced AC-3 with Joint Object Coding
Commercial name                : Dolby Digital Plus with Dolby Atmos
Codec ID                       : A_EAC3
Duration                       : 2 h 9 min
Bit rate mode                  : Constant
Bit rate                       : 768 kb/s
Channel(s)                     : 6 channels
Channel layout                 : L R C LFE Ls Rs
Sampling rate                  : 48.0 kHz
Frame rate                     : 31.250 FPS (1536 SPF)
Compression mode               : Lossy
Stream size                    : 711 MiB (15%)
Service kind                   : Complete Main
Complexity index               : 16
Number of dynamic objects      : 15
Bed channel count              : 1 channel
Bed channel configuration      : LFE
截图
 
Image
下载资源: Download 开始下载
文件总大小: 4.6GB (种子:6,下载:2,完成:473)    
包含文件: URL 梦幻天堂·龙网(www.321n.net).热辣滚烫.中国版百元之恋/本片海报简介截图等双击这里进入发布地址查看.url (199Bytes)
URL 梦幻天堂·龙网(www.321n.net).热辣滚烫.中国版百元之恋/梦幻天堂·龙网(www.321n.net) 质量第一 品质保证.url (177Bytes)
UNKNOWN 梦幻天堂·龙网(www.321n.net).热辣滚烫.中国版百元之恋/梦幻天堂·龙网(www.321n.net) 超多爆爽资源下载目录.rtf (2.1KB)
MKV 梦幻天堂·龙网(www.321n.net).热辣滚烫.中国版百元之恋/梦幻天堂·龙网(www.321n.net).热辣滚烫.中国版百元之恋.mkv (4.6GB)
UNKNOWN 梦幻天堂·龙网(www.321n.net).热辣滚烫.中国版百元之恋/梦幻天堂·龙网最新网址 www.321n.net 请重新收藏.rtf (667Bytes)
Powered by BTMaster.cn Version:1.3.3