【龙网转发】【中2023最新周冬雨主演剧情犯罪】【热搜】【WebDL-2160p.MKV】【国语】 - 龙网BT发布页 - 梦幻天堂·龙网专属BT发布页
资源名称: 【龙网转发】【中2023最新周冬雨主演剧情犯罪】【热搜】【WebDL-2160p.MKV】【国语】 [参与讨论]
发布者: 由 lwgod 发布于2024/01/03 15:13
发布联盟:
资源介绍:
海报
 
Image
 
Image
 
译  名 热搜
片  名 Trending Topic
年  代 2023
国  家 中国
类  别 剧情/犯罪
语  言 汉语普通话/粤语
字  幕 中英硬字幕
评  分 6.1/10 from 34,252 users
文件大小 3.48 GB
片  长 121 Min
导  演 忻钰坤 Yukun Xin
主  演 周冬雨 Dongyu Zhou
     宋洋 Yang Song
     袁弘 Hong Yuan
     王皓 Hao Wang
     陶海 Hai Tao
     石蕊 Rui Shi
     王硕 Shuo Wang
     米拉 Mi La
     张煜雯 Yuwen Zhang
     钟晨瑶 Chenyao Zhong
     师悦玲 Yueling Shi
 
简介
 
  热搜背后,真相究竟是什么?
 
  自媒体主编陈妙(周冬雨 饰)参透流量密码,打造爆款文章冲上热搜,却间接助推了当事人“霸凌者”女学生的跳楼。就在此时,陈妙意外发现女学生曾发来的求助信息,并牵扯出一桩性侵案。陈妙的合伙人何言(宋洋 饰),投资方富商岳鹏(袁弘 饰)陆续卷入其中。舆论多次转向,事件背后又隐藏着怎样的利益链条,一场为弱者发声的舆论战打响……
 
Video
Format                         : HEVC
Format/Info                    : High Efficiency Video Coding
Format profile                 : Main @ L5.1 @ Main
Codec ID                       : V_MPEGH/ISO/HEVC
Duration                       : 2 h 1 min
Bit rate                       : 3 855 kb/s
Width                          : 3 840 pixels
Height                         : 1 608 pixels
Display aspect ratio           : 2.40:1
Frame rate mode                : Constant
Frame rate                     : 60.000 FPS
Color space                    : YUV
Chroma subsampling             : 4:2:0
Bit depth                      : 8 bits
Bits/(Pixel*Frame)             : 0.010
Stream size                    : 3.26 GiB (94%)
 
Audio
Format                         : E-AC-3
Format/Info                    : Enhanced AC-3
Commercial name                : Dolby Digital Plus
Codec ID                       : A_EAC3
Duration                       : 2 h 1 min
Bit rate mode                  : Constant
Bit rate                       : 256 kb/s
Channel(s)                     : 6 channels
Channel layout                 : L R C LFE Ls Rs
Sampling rate                  : 48.0 kHz
Frame rate                     : 31.250 FPS (1536 SPF)
Compression mode               : Lossy
Stream size                    : 222 MiB (6%)
Service kind                   : Complete Main
 
截图
 
Image
下载资源: Download 开始下载
文件总大小: 3.5GB (种子:0,下载:0,完成:124)    
包含文件: URL 梦幻天堂·龙网(www.LWgod.org).热搜.周冬雨2023新片/本片海报、简介、截图等双击这里进入发布地址查看.url (198Bytes)
URL 梦幻天堂·龙网(www.LWgod.org).热搜.周冬雨2023新片/梦幻天堂·龙网(www.LWgod.org) 质量第一 品质保证.url (176Bytes)
UNKNOWN 梦幻天堂·龙网(www.LWgod.org).热搜.周冬雨2023新片/梦幻天堂·龙网(www.LWgod.org) 超多爆爽资源下载目录.rtf (2.1KB)
MKV 梦幻天堂·龙网(www.LWgod.org).热搜.周冬雨2023新片/梦幻天堂·龙网(www.LWgod.org).热搜.周冬雨2023新片.mkv (3.5GB)
UNKNOWN 梦幻天堂·龙网(www.LWgod.org).热搜.周冬雨2023新片/梦幻天堂·龙网最新网址 www.LWgod.org 请重新收藏.rtf (890Bytes)
UNKNOWN 梦幻天堂·龙网(www.LWgod.org).热搜.周冬雨2023新片/龙网种子即将停止外转,下载龙网资源请至龙网原创区.rtf (807Bytes)
Powered by BTMaster.cn Version:1.3.3