【龙网转发】【中国2022热门爆笑喜剧】【东北告别天团】【WebDL-2160p.MKV】【国语】 - 龙网BT发布页 - 梦幻天堂·龙网专属BT发布页
资源名称: 【龙网转发】【中国2022热门爆笑喜剧】【东北告别天团】【WebDL-2160p.MKV】【国语】 [参与讨论]
发布者: 由 lwgod 发布于2022/05/05 19:59
发布联盟:
资源介绍:
海报
 
Image
 
Image
 
译  名 东北告别天团
片  名 Goodbye
年  代 2022
国  家 中国
类  别 喜剧/剧情
语  言 汉语普通话
字  幕 中文硬字幕
评  分 5.9/10 from 11,865 users
文件大小 1.34 GB
片  长 95 Min
导  演 崔志佳 Zhijia Cui
主  演 崔志佳 Zhijia Cui
     宋晓峰 Xiaofeng Song
     张琪 Qi Zhang
     刁彪 Biao Diao
     李昆鹰 Kunying Li
     于洋 Yang Yu
     孙越 Yue Sun
     梁龙 Long Liang
     赵海燕 Haiyan Zhao
     张子栋 Zi-Dong Zhang
     韩彦博 Yanbo Han
 
简介
 
  范大明白(崔志佳 饰)在东北从事着白事行业,与众不同的是,范大明白愿意接纳刑满释放的人,为他们提供工作机会。这一天,一名叫做牛硬朗(宋晓峰 饰)的男人来到店里,抛出了豪华大单——三百万的葬礼,范大明白及团队惊讶不已……在办葬礼的过程中,范大明白和牛硬朗才发现,原来二人之间的渊源不止如此……
 
Video
Format                         : HEVC
Format/Info                    : High Efficiency Video Coding
Format profile                 : Main @ L5 @ Main
Codec ID                       : V_MPEGH/ISO/HEVC
Duration                       : 1 h 35 min
Bit rate                       : 1 897 kb/s
Width                          : 3 840 pixels
Height                         : 1 626 pixels
Display aspect ratio           : 2.35:1
Frame rate mode                : Constant
Frame rate                     : 24.000 FPS
Color space                    : YUV
Chroma subsampling             : 4:2:0
Bit depth                      : 8 bits
Bits/(Pixel*Frame)             : 0.013
Stream size                    : 1.26 GiB (94%)
Color range                    : Limited
Color primaries                : BT.709
Transfer characteristics       : BT.709
Matrix coefficients            : BT.709
 
Audio
Format                         : AAC LC
Format/Info                    : Advanced Audio Codec Low Complexity
Codec ID                       : A_AAC-2
Duration                       : 1 h 35 min
Bit rate                       : 125 kb/s
Channel(s)                     : 2 channels
Channel layout                 : L R
Sampling rate                  : 48.0 kHz
Frame rate                     : 46.875 FPS (1024 SPF)
Compression mode               : Lossy
Stream size                    : 85.2 MiB (6%)
 
截图
 
Image
下载资源: Download 开始下载
文件总大小: 1.3GB (种子:1,下载:2,完成:635)    
包含文件: URL 梦幻天堂·龙网(www.LWgod.org).东北告别天团/本片海报、简介、截图等双击这里进入发布地址查看.url (198Bytes)
URL 梦幻天堂·龙网(www.LWgod.org).东北告别天团/梦幻天堂·龙网(www.LWgod.org) 质量第一 品质保证.url (176Bytes)
UNKNOWN 梦幻天堂·龙网(www.LWgod.org).东北告别天团/梦幻天堂·龙网(www.LWgod.org) 超多爆爽资源下载目录.rtf (2.1KB)
MKV 梦幻天堂·龙网(www.LWgod.org).东北告别天团/梦幻天堂·龙网(www.LWgod.org).东北告别天团.mkv (1.3GB)
UNKNOWN 梦幻天堂·龙网(www.LWgod.org).东北告别天团/梦幻天堂·龙网最新网址 www.LWgod.org 请重新收藏.rtf (890Bytes)
Powered by BTMaster.cn Version:1.3.3