【龙网转发】【中2022票房喜剧动画】【熊出没重返地球】【WebDL-2160p.MKV】【国语】 - 龙网BT发布页 - 梦幻天堂·龙网专属BT发布页
资源名称: 【龙网转发】【中2022票房喜剧动画】【熊出没重返地球】【WebDL-2160p.MKV】【国语】 [参与讨论]
发布者: 由 lwgod 发布于2022/04/24 21:37
发布联盟:
资源介绍:
海报
 
Image
 
Image
 
译  名 熊出没·重返地球/熊出没大电影8
片  名 Boonie Bears: Back to Earth
年  代 2022
国  家 中国
类  别 动画/喜剧/科幻
语  言 汉语普通话
字  幕 中文硬字幕
评  分 6.5/10 from 20,999 users
文件大小 7.42 GB
片  长 99 Min
导  演 林汇达 Huida Lin
主  演 张秉君 Bingjun Zhang
     李婉瑶 Wanyao Li
     张伟 Wei Zhang
     谭笑 Xiao Tan
     程子洋 Ziyang Cheng
     刘思奇 Siqi Liu
 
简介
 
  有点懒又有点馋的熊二虽然总是各种失误犯错,内心却一直梦想成为一位英雄,以此获得大家特别是哥哥熊大的认可。
 
  一块外星原核的坠落打破了狗熊岭的平静,熊二意外的与外星原核合体,成为了拥有外星智慧能量的熊!随之而来的是“外星人”阿布的抢夺。阿布为了夺回原核,故意制造事端,让熊二众叛亲离。就在阿布将要成功的时候,一支神秘高科技军团的攻击彻底打乱了计划,导致熊强组合甚至整个地球于巨大的危难之中。
 
  阿布隐藏的身份以及来到地球的真正目的到底是什么?神秘的高科技军团背后有何故事?自暴自弃的熊二能否振作起来实现他的英雄梦?他们能否挽救地球的危机?
 
Video
Format                         : AVC
Format/Info                    : Advanced Video Codec
Format profile                 : High @ L5.1
Format settings                : CABAC / 4 Ref Frames
Format settings, CABAC         : Yes
Format settings, Reference fra : 4 frames
Codec ID                       : V_MPEG4/ISO/AVC
Duration                       : 1 h 39 min
Bit rate                       : 10.5 Mb/s
Width                          : 3 840 pixels
Height                         : 2 160 pixels
Display aspect ratio           : 16:9
Frame rate mode                : Constant
Frame rate                     : 25.000 FPS
Color space                    : YUV
Chroma subsampling             : 4:2:0
Bit depth                      : 8 bits
Scan type                      : Progressive
Bits/(Pixel*Frame)             : 0.051
Stream size                    : 7.29 GiB (98%)
 
Audio
Format                         : AAC LC
Format/Info                    : Advanced Audio Codec Low Complexity
Codec ID                       : A_AAC-2
Duration                       : 1 h 39 min
Bit rate                       : 192 kb/s
Channel(s)                     : 2 channels
Channel layout                 : L R
Sampling rate                  : 44.1 kHz
Frame rate                     : 43.066 FPS (1024 SPF)
Compression mode               : Lossy
Stream size                    : 135 MiB (2%)
 
截图
 
Image
下载资源: Download 开始下载
文件总大小: 7.4GB (种子:6,下载:1,完成:366)    
包含文件: URL 梦幻天堂·龙网(www.LWgod.org).熊出没·重返地球.熊出没大电影8/本片海报、简介、截图等双击这里进入发布地址查看.url (198Bytes)
URL 梦幻天堂·龙网(www.LWgod.org).熊出没·重返地球.熊出没大电影8/梦幻天堂·龙网(www.LWgod.org) 质量第一 品质保证.url (176Bytes)
UNKNOWN 梦幻天堂·龙网(www.LWgod.org).熊出没·重返地球.熊出没大电影8/梦幻天堂·龙网(www.LWgod.org) 超多爆爽资源下载目录.rtf (2.1KB)
MKV 梦幻天堂·龙网(www.LWgod.org).熊出没·重返地球.熊出没大电影8/梦幻天堂·龙网(www.LWgod.org).熊出没·重返地球.熊出没大电影8.mkv (7.4GB)
UNKNOWN 梦幻天堂·龙网(www.LWgod.org).熊出没·重返地球.熊出没大电影8/梦幻天堂·龙网最新网址 www.LWgod.org 请重新收藏.rtf (890Bytes)
Powered by BTMaster.cn Version:1.3.3