【龙网转发】【美国2021高分科幻剧情好片】【天鹅挽歌】【WebDL-1080p.MKV】【中字】 - 龙网BT发布页 - 梦幻天堂·龙网专属BT发布页
资源名称: 【龙网转发】【美国2021高分科幻剧情好片】【天鹅挽歌】【WebDL-1080p.MKV】【中字】 [参与讨论]
发布者: 由 lwgod 发布于2022/05/10 18:59
发布联盟:
资源介绍:
海报
 
Image
 
译  名 天鹅挽歌/天鹅之歌/最后绝唱
片  名 Swan Song
年  代 2021
国  家 美国
类  别 科幻/剧情
语  言 英语
字  幕 中简/中繁/英文
评  分 8.0/10 from 28,196 users
文件大小 8.47 GB
片  长 112 Min
导  演 本杰明·克利里 Benjamin Cleary
主  演 马赫沙拉·阿里 Mahershala Ali
     娜奥米·哈里斯 Naomie Harris
     格伦·克洛斯 Glenn Close
     奥卡菲娜 Awkwafina
     亚当·比奇 Adam Beach
     李·肖顿 Lee Shorten
     戴克斯·雷伊 Dax Rey
     卢克·卡米莱 Luke Camilleri
     尼亚切·海邓迪 Nyasha Hatendi
     杰瑞·蒂纳科 JayR Tinaco
 
简介
 
  在近未来,彼时科技愈加发达。人类自身变成人工智能般的存在,是行走的“支付宝”、“录音设备”、“摄影机”。卡梅隆(马赫沙拉·阿里 饰)在列车上用机器人贩售机买零食,只需口头确认订单,就自动扣款,不需要掏出支付页面或者识别人脸。肉体取代传统的电子设备,敲敲手指关节,便能操作各种屏幕。科技把人变得越来越像“机器”,反之,那些人造生命体和人工智能却变得越来越真实完善,两者之间的界限变得模糊而危险。卡梅隆就面临着这样的选择,要不要让人造生命体来取代自己,卡梅隆拥有一个幸福的三口之家,他与妻子波比(娜奥米·哈里斯 饰)是真正的灵魂伴侣,互为彼此的精神支柱。但是,他却身患绝症,将不久于人世。波比过去经历几次亲人的逝去,卡梅隆陪伴她度过那些痛苦的时光,难以想象她又该如何面对自己的死亡。
 
  于是,卡梅隆向波比隐瞒自己的病情,找到一家克隆机构,试图寻找让克隆人替自己陪伴妻子的可行性。卡梅隆一开始的态度是迟疑的。但当他看到,从外在的样貌,到内在的分子结构,都和自己一模一样的克隆人杰克(马赫沙拉·阿里 饰)的时候,他直接退却了。卡梅隆越是抗拒,越证明克隆技术的成功。正因为杰克和他毫无分别,卡梅隆才会产生“恐怖谷效应”,害怕自己的存在不再独特与真实。对于克隆机构来说,卡梅隆这样的潜在客户非常重要,他们研发出顶尖的技术,接下来就是让大众接受克隆人的时代到来。于是晓之以情,动之以理,试图让他慢慢理解克隆技术并不可怕。研究人员带卡梅隆拜访一位已经融入到现实生活中的克隆人凯特(奥卡菲娜 饰),同样来自重症患者。她已经通过测验,被删去自己是克隆人的记忆,甚至患者的所有亲友都没有发现她是克隆体。
 
Video
Format                         : AVC
Format/Info                    : Advanced Video Codec
Format profile                 : High @ L4
Format settings                : CABAC / 5 Ref Frames
Format settings, CABAC         : Yes
Format settings, Reference fra : 5 frames
Codec ID                       : V_MPEG4/ISO/AVC
Duration                       : 1 h 51 min
Bit rate                       : 10.1 Mb/s
Width                          : 1 918 pixels
Height                         : 802 pixels
Display aspect ratio           : 2.40:1
Frame rate mode                : Constant
Frame rate                     : 23.976 (24000/1001) FPS
Color space                    : YUV
Chroma subsampling             : 4:2:0
Bit depth                      : 8 bits
Scan type                      : Progressive
Bits/(Pixel*Frame)             : 0.273
Stream size                    : 7.86 GiB (93%)
Color range                    : Limited
Color primaries                : BT.709
Transfer characteristics       : BT.709
Matrix coefficients            : BT.709
 
Audio
Format                         : E-AC-3 JOC
Format/Info                    : Enhanced AC-3 with Joint Object Coding
Commercial name                : Dolby Digital Plus with Dolby Atmos
Codec ID                       : A_EAC3
Duration                       : 1 h 51 min
Bit rate mode                  : Constant
Bit rate                       : 768 kb/s
Channel(s)                     : 6 channels
Channel layout                 : L R C LFE Ls Rs
Sampling rate                  : 48.0 kHz
Frame rate                     : 31.250 FPS (1536 SPF)
Compression mode               : Lossy
Stream size                    : 615 MiB (7%)
Service kind                   : Complete Main
Complexity index               : 16
Number of dynamic objects      : 15
Bed channel count              : 1 channel
Bed channel configuration      : LFE
 
截图
 
Image
下载资源: Download 开始下载
文件总大小: 8.5GB (种子:5,下载:9,完成:454)    
包含文件: URL 梦幻天堂·龙网(www.LWgod.org).天鹅挽歌.天鹅之歌/本片海报、简介、截图等双击这里进入发布地址查看.url (198Bytes)
URL 梦幻天堂·龙网(www.LWgod.org).天鹅挽歌.天鹅之歌/梦幻天堂·龙网(www.LWgod.org) 质量第一 品质保证.url (176Bytes)
UNKNOWN 梦幻天堂·龙网(www.LWgod.org).天鹅挽歌.天鹅之歌/梦幻天堂·龙网(www.LWgod.org) 超多爆爽资源下载目录.rtf (2.1KB)
MKV 梦幻天堂·龙网(www.LWgod.org).天鹅挽歌.天鹅之歌/梦幻天堂·龙网(www.LWgod.org).天鹅挽歌.天鹅之歌.mkv (8.5GB)
UNKNOWN 梦幻天堂·龙网(www.LWgod.org).天鹅挽歌.天鹅之歌/梦幻天堂·龙网最新网址 www.LWgod.org 请重新收藏.rtf (890Bytes)
Powered by BTMaster.cn Version:1.3.3