【龙网转发】【2022性感美女大尺度】【365天:明日之欲】【WebDL-1080p.MKV】【中字】 - 龙网BT发布页 - 梦幻天堂·龙网专属BT发布页
资源名称: 【龙网转发】【2022性感美女大尺度】【365天:明日之欲】【WebDL-1080p.MKV】【中字】 [参与讨论]
发布者: 由 lwgod 发布于2023/11/16 15:28
发布联盟:
资源介绍:
本片是"黑帮大佬和我的365日"系列的第三部
前两部下载地址:第一部  第二部
 
海报
 
Image
 
译  名 365天:明日之欲/黑帮大佬和我的365日3/接下来的365天/再现之欲
片  名 The Next 365 Days
年  代 2022
国  家 波兰
类  别 剧情/爱情/情色
语  言 波兰语/英语
字  幕 中简/中繁/英文
评  分 4.6/10 from 7,138 users
文件大小 2.20 GB
片  长 112 Min
导  演 芭芭拉·比尔拉瓦斯 Barbara Bialowas
     托马斯·曼丁斯 Tomasz Mandes
主  演 安娜·玛丽亚·西克拉克 Anna Maria Sieklucka
     米凯莱·莫罗尼 Michele Morrone
     西蒙·苏西纳 Simone Susinna
     玛格达莱娜·朗帕斯卡 Magdalena Lamparska
     奥塔尔·萨拉利兹 Otar Saralidze
     埃瓦·卡斯珀齐克 Ewa Kasprzyk
     达里乌斯·贾库波斯基 Dariusz Jakubowski
     拉蒙·兰加 Ramon Langa
     托马斯·曼丁斯 Tomasz Mandes
     娜塔莉亚·西维茨 Natalia Siwiec
     卡罗琳娜·皮萨雷克 Karolina Pisarek
 
简介
 
  劳拉和马西莫的关系岌岌可危,二人试图克服信任问题,而执着的纳乔想方设法拆散二人。
 
Video
Format                         : AVC
Format/Info                    : Advanced Video Codec
Format profile                 : High@L4
Format settings                : CABAC / 4 Ref Frames
Format settings, CABAC         : Yes
Format settings, Reference fra : 4 frames
Codec ID                       : V_MPEG4/ISO/AVC
Duration                       : 1 h 53 min
Bit rate mode                  : Variable
Bit rate                       : 2 125 kb/s
Maximum bit rate               : 20.0 Mb/s
Width                          : 1 920 pixels
Height                         : 1 080 pixels
Display aspect ratio           : 16:9
Frame rate mode                : Constant
Frame rate                     : 25.000 FPS
Color space                    : YUV
Chroma subsampling             : 4:2:0
Bit depth                      : 8 bits
Scan type                      : Progressive
Bits/(Pixel*Frame)             : 0.041
Stream size                    : 1.69 GiB (76%)
 
Audio
Format                         : E-AC-3
Format/Info                    : Enhanced AC-3
Commercial name                : Dolby Digital Plus
Codec ID                       : A_EAC3
Duration                       : 1 h 53 min
Bit rate mode                  : Constant
Bit rate                       : 640 kb/s
Channel(s)                     : 6 channels
Channel layout                 : L R C LFE Ls Rs
Sampling rate                  : 48.0 kHz
Frame rate                     : 31.250 FPS (1536 SPF)
Compression mode               : Lossy
Stream size                    : 521 MiB (23%)
Language                       : English
Service kind                   : Complete Main
 
截图
 
Image
下载资源: Download 开始下载
文件总大小: 2.2GB (种子:9,下载:0,完成:1074)    
包含文件: URL 梦幻天堂·龙网(www.LWgod.org).365天:明日之欲.黑帮大佬和我的365日3/本片海报、简介、截图等双击这里进入发布地址查看.url (198Bytes)
URL 梦幻天堂·龙网(www.LWgod.org).365天:明日之欲.黑帮大佬和我的365日3/梦幻天堂·龙网(www.LWgod.org) 质量第一 品质保证.url (176Bytes)
UNKNOWN 梦幻天堂·龙网(www.LWgod.org).365天:明日之欲.黑帮大佬和我的365日3/梦幻天堂·龙网(www.LWgod.org) 超多爆爽资源下载目录.rtf (2.1KB)
MKV 梦幻天堂·龙网(www.LWgod.org).365天:明日之欲.黑帮大佬和我的365日3/梦幻天堂·龙网(www.LWgod.org).365天:明日之欲.黑帮大佬和我的365日3.mkv (2.2GB)
UNKNOWN 梦幻天堂·龙网(www.LWgod.org).365天:明日之欲.黑帮大佬和我的365日3/梦幻天堂·龙网最新网址 www.LWgod.org 请重新收藏.rtf (890Bytes)
Powered by BTMaster.cn Version:1.3.3