【龙网转发】【扎导2023视效巨制】【月球叛军:火之女】【WebDL-1080p.MKV】【中字】 - 龙网BT发布页 - 梦幻天堂·龙网专属BT发布页
资源名称: 【龙网转发】【扎导2023视效巨制】【月球叛军:火之女】【WebDL-1080p.MKV】【中字】 [参与讨论]
发布者: 由 lwgod 发布于2023/12/25 18:14
发布联盟:
资源介绍:
海报
 
Image
 
Image
 
译  名 月球叛军:火之女/Rebel Moon-第1部:火之女/卫星叛军:火之女/月球叛军1/反叛行星/反叛之月
片  名 Rebel Moon: Part One - A Child of Fire
年  代 2023
国  家 美国/匈牙利/瑞典/丹麦/英国
类  别 动作/科幻/奇幻/冒险
语  言 英语
字  幕 中简/中繁/英文
评  分 5.4/10 from 4,700 users
文件大小 5.33 GB
片  长 133 Min
导  演 扎克·施奈德 Zack Snyder
主  演 索菲亚·波多拉 Sofia Boutella
     艾德·斯克林 Ed Skrein
     克利欧佩特拉·科尔曼 Cleopatra Coleman
     加利·艾尔维斯 Cary Elwes
     安东尼·霍普金斯 Anthony Hopkins
     查理·汉纳姆 Charlie Hunnam
     吉娜·马隆 Jena Malone
     米希尔·赫伊斯曼 Michiel Huisman
     寇瑞·斯托尔 Corey Stoll
     杰曼·翰苏 Djimon Hounsou
     斯图尔特·马丁 Stuart Martin
     裴斗娜 Doona Bae
 
简介
 
  广袤的银河系,已经被名为巴里萨利斯(艾德·斯克林 饰)的暴君所统治,并建立起庞大而残酷的帝国。位于银河系边缘的一座殖民星球,人们过着拮据贫苦的生活。这一天,帝国军舰突然出现在星球上空,狂暴的军官出现在人民面前,他不顾当地人的生计和死活,命令他们在规定时间内交够足够的粮食。军官走后,留下一队士兵监督人民劳作。谁曾想,一次突发事件导致女孩柯拉(索菲亚·波多拉 饰)和帝国的机器人吉米(安东尼·霍普金斯 配音)反抗并杀掉了这些士兵。为了对抗巴里萨利斯的大军,柯拉等人出发前往抵抗组织“血斧”。
 
  一场冒险就此展开……
 
Video
Format                         : AVC
Format/Info                    : Advanced Video Codec
Format profile                 : Main@L4
Format settings                : CABAC / 3 Ref Frames
Format settings, CABAC         : Yes
Format settings, Reference fra : 3 frames
Codec ID                       : V_MPEG4/ISO/AVC
Duration                       : 2 h 15 min
Bit rate mode                  : Variable
Bit rate                       : 5 000 kb/s
Maximum bit rate               : 7 500 kb/s
Width                          : 1 920 pixels
Height                         : 1 080 pixels
Display aspect ratio           : 16:9
Frame rate mode                : Constant
Frame rate                     : 24.000 FPS
Color space                    : YUV
Chroma subsampling             : 4:2:0
Bit depth                      : 8 bits
Scan type                      : Progressive
Bits/(Pixel*Frame)             : 0.100
Stream size                    : 4.59 GiB (86%)
 
Audio
Format                         : E-AC-3 JOC
Format/Info                    : Enhanced AC-3 with Joint Object Coding
Commercial name                : Dolby Digital Plus with Dolby Atmos
Codec ID                       : A_EAC3
Duration                       : 2 h 15 min
Bit rate mode                  : Constant
Bit rate                       : 768 kb/s
Channel(s)                     : 6 channels
Channel layout                 : L R C LFE Ls Rs
Sampling rate                  : 48.0 kHz
Frame rate                     : 31.250 FPS (1536 SPF)
Compression mode               : Lossy
Stream size                    : 747 MiB (14%)
Language                       : English
Service kind                   : Complete Main
 
截图
 
Image
下载资源: Download 开始下载
文件总大小: 5.3GB (种子:5,下载:8,完成:448)    
包含文件: URL 梦幻天堂·龙网(www.LWgod.org).月球叛军:火之女/本片海报、简介、截图等双击这里进入发布地址查看.url (198Bytes)
URL 梦幻天堂·龙网(www.LWgod.org).月球叛军:火之女/梦幻天堂·龙网(www.LWgod.org) 质量第一 品质保证.url (176Bytes)
UNKNOWN 梦幻天堂·龙网(www.LWgod.org).月球叛军:火之女/梦幻天堂·龙网(www.LWgod.org) 超多爆爽资源下载目录.rtf (2.1KB)
MKV 梦幻天堂·龙网(www.LWgod.org).月球叛军:火之女/梦幻天堂·龙网(www.LWgod.org).月球叛军:火之女.mkv (5.3GB)
UNKNOWN 梦幻天堂·龙网(www.LWgod.org).月球叛军:火之女/梦幻天堂·龙网最新网址 www.LWgod.org 请重新收藏.rtf (890Bytes)
UNKNOWN 梦幻天堂·龙网(www.LWgod.org).月球叛军:火之女/龙网种子即将停止外转,下载龙网资源请至龙网原创区.rtf (807Bytes)
Powered by BTMaster.cn Version:1.3.3