【龙网转发】【2022万众期待】【神奇动物:邓布利多之谜】【WebDL-1080p.MKV】【中字】 - 龙网BT发布页 - 梦幻天堂·龙网专属BT发布页
资源名称: 【龙网转发】【2022万众期待】【神奇动物:邓布利多之谜】【WebDL-1080p.MKV】【中字】 [参与讨论]
发布者: 由 lwgod 发布于2022/05/15 17:35
发布联盟:
资源介绍:
此版带有韩文硬字幕,无法消除,不喜欢的兄弟请继续等待!
 
海报
 
Image
 
Image
 
译  名 神奇动物:邓布利多之谜/神奇动物在哪里3:邓布利多之谜/神奇生物在哪里3/怪兽与邓不利多的秘密(港/台)
片  名 Fantastic Beasts: The Secrets of Dumbledore
年  代 2022
国  家 英国/美国
类  别 动作/奇幻/冒险
语  言 英语/德语
字  幕 中简/中繁/英文
评  分 6.4/10 from 55,041 users
文件大小 8.17 GB
片  长 142 Min
导  演 大卫·叶茨 David Yates
主  演 埃迪·雷德梅恩 Eddie Redmayne
     裘德·洛 Jude Law
     麦斯·米科尔森 Mads Mikkelsen
     丹·福勒 Dan Fogler
     艾莉森·萨多尔 Alison Sudol
     凯瑟琳·沃特斯顿 Katherine Waterston
     埃兹拉·米勒 Ezra Miller
     卡勒姆·特纳 Callum Turner
     杰西卡·威廉姆斯 Jessica Williams
     理查德·柯伊尔 Richard Coyle
     波佩·科比-特曲 Poppy Corby-Tuech
 
简介
 
  阿不思·邓布利多教授(裘德·洛 饰)意识到强大的黑巫师盖勒特·格林德沃(麦斯·米科尔森 饰)正试图夺取魔法世界的控制权。邓布利多了解仅凭他一人之力,将无法阻止格林德沃,于是他委托魔法动物学家纽特·斯卡曼德(埃迪·雷德梅恩 饰)带领一支精良的团队——成员包括男巫、女巫及一位勇敢的麻瓜面包师,来共同执行这项危险任务。一路上他们会遇到各式各样的神奇动物,既有老朋友,也有前所未见的神秘生物;同时他们也随时会与格林德沃不断壮大的追随者发生冲突。这次行动的风险是如此之高……邓布利多还能袖手旁观多久?
 
Video
Format                         : AVC
Format/Info                    : Advanced Video Codec
Format profile                 : Main @ L4
Format settings                : CABAC / 2 Ref Frames
Format settings, CABAC         : Yes
Format settings, Reference fra : 2 frames
Format settings, GOP           : M=1, N=30
Codec ID                       : V_MPEG4/ISO/AVC
Duration                       : 2 h 22 min
Bit rate mode                  : Constant
Bit rate                       : 8 000 kb/s
Width                          : 1 920 pixels
Height                         : 1 080 pixels
Display aspect ratio           : 16:9
Frame rate mode                : Constant
Frame rate                     : 23.976 (24000/1001) FPS
Color space                    : YUV
Chroma subsampling             : 4:2:0
Bit depth                      : 8 bits
Scan type                      : Progressive
Bits/(Pixel*Frame)             : 0.161
Stream size                    : 7.97 GiB (97%)
 
Audio
Format                         : AAC LC SBR
Format/Info                    : Advanced Audio Codec Low Complexity with Spectral Band Replication
Commercial name                : HE-AAC
Format settings                : Implicit
Codec ID                       : A_AAC-2
Duration                       : 2 h 22 min
Bit rate                       : 192 kb/s
Channel(s)                     : 6 channels
Channel layout                 : C L R Ls Rs LFE
Sampling rate                  : 48.0 kHz
Frame rate                     : 23.438 FPS (2048 SPF)
Compression mode               : Lossy
Stream size                    : 196 MiB (2%)
 
截图
 
Image
下载资源: Download 开始下载
文件总大小: 8.2GB (种子:13,下载:2,完成:1172)    
包含文件: URL 梦幻天堂·龙网(www.LWgod.org).神奇动物:邓布利多之谜/本片海报、简介、截图等双击这里进入发布地址查看.url (198Bytes)
URL 梦幻天堂·龙网(www.LWgod.org).神奇动物:邓布利多之谜/梦幻天堂·龙网(www.LWgod.org) 质量第一 品质保证.url (176Bytes)
UNKNOWN 梦幻天堂·龙网(www.LWgod.org).神奇动物:邓布利多之谜/梦幻天堂·龙网(www.LWgod.org) 超多爆爽资源下载目录.rtf (2.1KB)
MKV 梦幻天堂·龙网(www.LWgod.org).神奇动物:邓布利多之谜/梦幻天堂·龙网(www.LWgod.org).神奇动物:邓布利多之谜.mkv (8.2GB)
UNKNOWN 梦幻天堂·龙网(www.LWgod.org).神奇动物:邓布利多之谜/梦幻天堂·龙网最新网址 www.LWgod.org 请重新收藏.rtf (890Bytes)
Powered by BTMaster.cn Version:1.3.3