【龙网转发】【大卫芬奇导演2023最新动作犯罪】【杀手】【WebDL-1080p.MKV】【中字】 - 龙网BT发布页 - 梦幻天堂·龙网专属BT发布页
资源名称: 【龙网转发】【大卫芬奇导演2023最新动作犯罪】【杀手】【WebDL-1080p.MKV】【中字】 [参与讨论]
发布者: 由 lwgod 发布于2023/11/13 20:20
发布联盟:
资源介绍:
海报
 
Image
 
Image
 
译  名 杀手
片  名 The Killer
年  代 2023
国  家 美国
类  别 动作/悬疑/惊悚/犯罪/冒险
语  言 英语
字  幕 中简/中繁/英文
评  分 6.6/10 from 9,045 users
文件大小 4.65 GB
片  长 118 Min
导  演 大卫·芬奇 David Fincher
主  演 迈克尔·法斯宾德 Michael Fassbender
     蒂尔达·斯文顿 Tilda Swinton
     查尔斯·帕内尔 Charles Parnell
     艾利斯·霍华德 Arliss Howard
     凯莉·奥马利 Kerry O'Malley
     索菲·夏洛特 Sophie Charlotte
     埃米利亚诺·佩尼亚 Emiliano Pernia
     加布里埃尔·波兰科 Gabriel Polanco
     萨拉·贝克 Sala Baker
     安德烈·胡勒斯 Endre Hules
     伯纳德·拜戈特 Bernard Bygott
 
简介
 
  发生致命的失误后,这名刺客在一场国际追捕行动之中与雇主们和他自己展开对抗,而他坚称这绝不是私人恩怨。
 
Video
Format                         : AVC
Format/Info                    : Advanced Video Codec
Format profile                 : Main@L4
Format settings                : CABAC / 3 Ref Frames
Format settings, CABAC         : Yes
Format settings, Reference fra : 3 frames
Codec ID                       : V_MPEG4/ISO/AVC
Duration                       : 1 h 59 min
Bit rate mode                  : Variable
Bit rate                       : 5 000 kb/s
Maximum bit rate               : 7 500 kb/s
Width                          : 1 920 pixels
Height                         : 1 080 pixels
Display aspect ratio           : 16:9
Frame rate mode                : Constant
Frame rate                     : 24.000 FPS
Color space                    : YUV
Chroma subsampling             : 4:2:0
Bit depth                      : 8 bits
Scan type                      : Progressive
Bits/(Pixel*Frame)             : 0.100
Stream size                    : 4.11 GiB (88%)
 
Audio
Format                         : E-AC-3
Format/Info                    : Enhanced AC-3
Commercial name                : Dolby Digital Plus
Codec ID                       : A_EAC3
Duration                       : 1 h 59 min
Bit rate mode                  : Constant
Bit rate                       : 640 kb/s
Channel(s)                     : 6 channels
Channel layout                 : L R C LFE Ls Rs
Sampling rate                  : 48.0 kHz
Frame rate                     : 31.250 FPS (1536 SPF)
Compression mode               : Lossy
Stream size                    : 547 MiB (11%)
Language                       : English
Service kind                   : Complete Main
 
截图
 
Image
下载资源: Download 开始下载
文件总大小: 4.7GB (种子:2,下载:6,完成:839)    
包含文件: URL 梦幻天堂·龙网(www.LWgod.org).杀手.大卫芬奇导演2023新片/本片海报、简介、截图等双击这里进入发布地址查看.url (198Bytes)
URL 梦幻天堂·龙网(www.LWgod.org).杀手.大卫芬奇导演2023新片/梦幻天堂·龙网(www.LWgod.org) 质量第一 品质保证.url (176Bytes)
UNKNOWN 梦幻天堂·龙网(www.LWgod.org).杀手.大卫芬奇导演2023新片/梦幻天堂·龙网(www.LWgod.org) 超多爆爽资源下载目录.rtf (2.1KB)
MKV 梦幻天堂·龙网(www.LWgod.org).杀手.大卫芬奇导演2023新片/梦幻天堂·龙网(www.LWgod.org).杀手.大卫芬奇导演2023新片.mkv (4.7GB)
UNKNOWN 梦幻天堂·龙网(www.LWgod.org).杀手.大卫芬奇导演2023新片/梦幻天堂·龙网最新网址 www.LWgod.org 请重新收藏.rtf (890Bytes)
Powered by BTMaster.cn Version:1.3.3