【龙网转发】【张钧甯阮经天2023悬疑犯罪大片】【追缉】【WebDL-1080p.MKV】【中字】 - 龙网BT发布页 - 梦幻天堂·龙网专属BT发布页
资源名称: 【龙网转发】【张钧甯阮经天2023悬疑犯罪大片】【追缉】【WebDL-1080p.MKV】【中字】 [参与讨论]
发布者: 由 lwgod 发布于2024/01/04 18:53
发布联盟:
资源介绍:
海报
 
Image
 
Image
 
译  名 追缉/查无此心/被操纵的罪恶/野鬼
片  名 The Abandoned
年  代 2023
国  家 中国台湾
类  别 悬疑/犯罪/惊悚
语  言 汉语普通话/泰语/闽南语/英语
字  幕 中简/中繁
评  分 6.3/10 from 14,268 users
文件大小 4.07 GB
片  长 105 Min
导  演 曾英庭 Ying-ting Tseng
主  演 张钧甯 Chun-Ning Chang
     阮经天 Ethan Juan
     游安顺 An-shun Yu
     萨吉·阿皮旺 Sajee Apiwong
     陈为民 Wei-min Chen
     项婕如 Chloe Xiang
     薛仕凌 Simon Hsueh
     黄镫辉 Huang Teng-Hui
     傅孟柏 Meng-Po Fu
     吕雪凤 Hsueh-Feng Lu
 
简介
 
  痛失爱人的女警吴洁(张钧甯 饰)在自杀前一刻偶遇一起杀人案件,案件中的女性水流尸被挖除心脏、切下无名指,昭示着这些女性被杀害前曾遭受非人虐待,一起针对雅隆女劳工的连环变态凶杀案在吴洁面前缓缓展开。在案件调查过程中,吴洁发现所有的证据都指向受害者的前男友,非法人力中介林佑生(阮经天 饰)。他和死者纠缠错乱的爱恨情仇使他成为了案件最大的嫌疑人……以爱为名的杀人狂徒究竟隐藏了什么真相,高能逆转,结局难料!
 
Video
Format                         : AVC
Format/Info                    : Advanced Video Codec
Format profile                 : Main@L4
Format settings                : CABAC / 3 Ref Frames
Format settings, CABAC         : Yes
Format settings, Reference fra : 3 frames
Codec ID                       : V_MPEG4/ISO/AVC
Duration                       : 1 h 44 min
Bit rate mode                  : Variable
Bit rate                       : 5 000 kb/s
Maximum bit rate               : 7 500 kb/s
Width                          : 1 920 pixels
Height                         : 1 080 pixels
Display aspect ratio           : 16:9
Frame rate mode                : Constant
Frame rate                     : 24.000 FPS
Color space                    : YUV
Chroma subsampling             : 4:2:0
Bit depth                      : 8 bits
Scan type                      : Progressive
Bits/(Pixel*Frame)             : 0.100
Stream size                    : 3.60 GiB (88%)
 
Audio
Format                         : E-AC-3
Format/Info                    : Enhanced AC-3
Commercial name                : Dolby Digital Plus
Codec ID                       : A_EAC3
Duration                       : 1 h 44 min
Bit rate mode                  : Constant
Bit rate                       : 640 kb/s
Channel(s)                     : 6 channels
Channel layout                 : L R C LFE Ls Rs
Sampling rate                  : 48.0 kHz
Frame rate                     : 31.250 FPS (1536 SPF)
Compression mode               : Lossy
Stream size                    : 479 MiB (11%)
Service kind                   : Complete Main
 
截图
 
Image
下载资源: Download 开始下载
文件总大小: 4.1GB (种子:4,下载:2,完成:296)    
包含文件: URL 梦幻天堂·龙网(www.LWgod.org).追缉.查无此心/本片海报、简介、截图等双击这里进入发布地址查看.url (198Bytes)
URL 梦幻天堂·龙网(www.LWgod.org).追缉.查无此心/梦幻天堂·龙网(www.LWgod.org) 质量第一 品质保证.url (176Bytes)
UNKNOWN 梦幻天堂·龙网(www.LWgod.org).追缉.查无此心/梦幻天堂·龙网(www.LWgod.org) 超多爆爽资源下载目录.rtf (2.1KB)
MKV 梦幻天堂·龙网(www.LWgod.org).追缉.查无此心/梦幻天堂·龙网(www.LWgod.org).追缉.查无此心.mkv (4.1GB)
UNKNOWN 梦幻天堂·龙网(www.LWgod.org).追缉.查无此心/梦幻天堂·龙网最新网址 www.LWgod.org 请重新收藏.rtf (890Bytes)
UNKNOWN 梦幻天堂·龙网(www.LWgod.org).追缉.查无此心/龙网种子即将停止外转,下载龙网资源请至龙网原创区.rtf (807Bytes)
Powered by BTMaster.cn Version:1.3.3